Wsparcie

Open search

Wybór strumienia audio

Highlighted
ROZWIĄZANE
Explorer

Witam.

Przeleciałem menu DŹWIĘK w moim NU7092. Nie znalazłem możliwości wyboru strumienia audio. Ktoś wie jak to zrobić?

1 ZAAKCEPTOWANE ROZWIĄZANIE

Zaakceptowane rozwiązania
Superuser II
Superuser II

@LeS59 a na pasku SmartHuba nie pojawia się opcja wyboru ścieżki dźwiekowej? To raczej powinno być dostepne w przypadku telewizji naziemnej.

 

1.png

 

2.png

 

3.png

 

4.png


Jeśli moja odpowiedź była pomocna kliknij  LIKE. Gdy rozwiązała problem skorzystaj z przycisku
Korzystaj z forum wygodnie i komfortowo - oto kilka dobrych praktyk!
Zanim zadasz pytanie, skorzystaj z wyszukiwarki, sprawdź czy ktoś podobnego już nie zadał.
Nie twórz nowego, dopisz się w już istniejącym, podobnym lub takim samym temacie.
32 ODPOW. 32
Explorer
Qrcze... Jest gorzej niż sądziłem. Jeśli się mylę proszę o źródła. Zgodnie z:
---
Załącznik do rozporządzenia Ministra Administracji i Cyfryzacji z dnia 7 lipca 2015 r. (poz. 1042)
WYMAGANIA TECHNICZNE I EKSPLOATACYJNE DLA ODBIORNIKÓW CYFROWYCH SŁUŻĄCYCH
DO ODBIORU CYFROWYCH NAZIEMNYCH TRANSMISJI TELEWIZYJNYCH

...Jako podstawowe przyjęto parametry odbiornika telewizji cyfrowej zdefiniowanego w ETSI TS 101 154 [7] jako „25 Hz H.264/AVC HDTV video, MPEG-2 Layer 2 and E-AC-3 audio...
---
W specyfikacji Samsunga: https://developer.samsung.com/tv/develop/specifications/media-specifications/2019-tv-video-specifica... nie potrafię odszukać kodeka MPEG-2 Layer 2.

Nawet nie śmiem się domyślać co to oznacza.... Ale może to rozporządzenie jest już nieaktualne?
Legend

Ministerstwo Cyfryzacji opublikowało projekt rozporządzenia regulującego nowe parametry techniczne odbiornika telewizyjnego współpracującego z technologią DVB-T2/HEVC





Jeśli podoba Ci się moja odpowiedź, daj mi lajka. Założyłeś temat i Ci pomogłem ? Oznacz najlepszą odpowiedź jako rozwiązanie. Dla mnie to najlepsza motywacja



Explorer
No SUPER. Tyle, że to projekt a ja kupiłem sprzęt w ubiegłym roku... Można wybrać inny strumień audio czy nie?
Legend

Pytasz się o  strumień audio czy format dzwięku ?





Jeśli podoba Ci się moja odpowiedź, daj mi lajka. Założyłeś temat i Ci pomogłem ? Oznacz najlepszą odpowiedź jako rozwiązanie. Dla mnie to najlepsza motywacja



Explorer
Wiem jak przełączyć Dolby na PCM. Nie wiem jak EAC3 na inny.
Explorer

Wg mnie Samsung wpuścił na nasz (polski) rynek odbiorniki niezgodne z rozporządzeniem: tekst jednolity z INFOR gdyż nie daje możliwości wyboru (p.7 pp.2) wejściowego strumienia audio z tej prostej przyczyny, że MPEG2 audio nie jest zaimplementowany. Zaznaczam - NIE JESTEM PRAWNIKIEM i oczywiście mogę się mylić. Jest projekt nowego rozporządzenia: projekt PDF
Jednakże wg mnie nie zmniejsza/omija wymagań dotychczasowych lecz je podnosi:
p7. pp2. "wyboru składowej fonii usługi w przypadku transmisji wielu składowych fonii w ramach
jednej usługi; Zaleca się aby pilot odbiornika posiadał przycisk do wyboru ścieżki dźwiękowej
lub inny mechanizm umożliwiający w łatwy sposób wybór tej ścieżki"

Zdekodowane przez ffMpeg parametry nadawania MUX-2:

 

Input #0, mpegts, from 'L:\REC\debug.ts':
Duration: 00:01:55.21, start: 64489.142478, bitrate: 13465 kb/s
Program 3
Metadata:
service_name : Polsat
service_provider: EmiTel
Stream #0:6[0x66]: Video: h264 (Main) ([27][0][0][0] / 0x001B), yuv420p(tv, bt470bg, top first), 720x576 [SAR 16:11 DAR 20:11], 25 fps, 50 tbr, 90k tbn, 50 tbc
Stream #0:7[0x67](pol): Audio: mp2 ([3][0][0][0] / 0x0003), 48000 Hz, stereo, s16p, 192 kb/s
Stream #0:39[0x68](pol): Audio: eac3 (EAC3 / 0x33434145), 48000 Hz, stereo, fltp, 256 kb/s
Stream #0:15[0x69](pol,pol): Subtitle: dvb_teletext ([6][0][0][0] / 0x0006)
Stream #0:40[0x6a](pol): Subtitle: dvb_subtitle ([6][0][0][0] / 0x0006)
Stream #0:21[0x6c](aux): Audio: eac3 (EAC3 / 0x33434145), 48000 Hz, stereo, fltp, 128 kb/s (visual impaired)
Stream #0:41[0x6b]: Unknown: none ([5][0][0][0] / 0x0005)
Program 4
Metadata:
service_name : TVN
service_provider: EmiTel
Stream #0:9[0xca]: Video: h264 (Main) ([27][0][0][0] / 0x001B), yuv420p(tv, bt470bg, top first), 720x576 [SAR 16:11 DAR 20:11], 25 fps, 50 tbr, 90k tbn, 50 tbc
Stream #0:19[0xcb](pol): Audio: mp2 ([3][0][0][0] / 0x0003), 48000 Hz, stereo, s16p, 192 kb/s
Stream #0:17[0xcc](org): Audio: ac3 (AC-3 / 0x332D4341), 48000 Hz, stereo, fltp, 448 kb/s
Stream #0:18[0xcd](pol): Subtitle: dvb_teletext ([6][0][0][0] / 0x0006)
Stream #0:37[0xcf]: Unknown: none ([5][0][0][0] / 0x0005)
Stream #0:38[0xce](pol): Subtitle: dvb_subtitle ([6][0][0][0] / 0x0006)
Program 5
Metadata:
service_name : TV4
service_provider: EmiTel
Stream #0:20[0x12e]: Video: h264 (Main) ([27][0][0][0] / 0x001B), yuv420p(tv, bt470bg, top first), 720x576 [SAR 16:11 DAR 20:11], 25 fps, 50 tbr, 90k tbn, 50 tbc
Stream #0:34[0x12f](pol): Audio: mp2 ([3][0][0][0] / 0x0003), 48000 Hz, stereo, s16p, 192 kb/s
Stream #0:2[0x131](pol,pol): Subtitle: dvb_teletext ([6][0][0][0] / 0x0006)
Stream #0:35[0x134](aux): Audio: eac3 (EAC3 / 0x33434145), 48000 Hz, stereo, fltp, 128 kb/s (visual impaired)
Stream #0:36[0x133]: Unknown: none ([5][0][0][0] / 0x0005)
Program 6
Metadata:
service_name : TV Puls
service_provider: EmiTel
Stream #0:10[0x192]: Video: h264 (Main) ([27][0][0][0] / 0x001B), yuv420p(tv, bt470bg, top first), 720x576 [SAR 16:11 DAR 20:11], 25 fps, 50 tbr, 90k tbn, 50 tbc
Stream #0:31[0x193](pol): Audio: mp2 ([3][0][0][0] / 0x0003), 48000 Hz, stereo, s16p, 192 kb/s
Stream #0:32[0x198](aux): Audio: mp2 ([3][0][0][0] / 0x0003), 48000 Hz, mono, s16p, 192 kb/s (visual impaired)
Stream #0:16[0x195](pol): Subtitle: dvb_teletext ([6][0][0][0] / 0x0006)
Stream #0:33[0x197]: Unknown: none ([5][0][0][0] / 0x0005)
Program 23
Metadata:
service_name : TVN 7
service_provider: EmiTel
Stream #0:5[0x1f6]: Video: h264 (Main) ([27][0][0][0] / 0x001B), yuv420p(tv, bt470bg, top first), 720x576 [SAR 16:11 DAR 20:11], 25 fps, 50 tbr, 90k tbn, 50 tbc
Stream #0:8[0x1f7](pol): Audio: mp2 ([3][0][0][0] / 0x0003), 48000 Hz, stereo, s16p, 192 kb/s
Stream #0:26[0x1f8](org): Audio: ac3 (AC-3 / 0x332D4341), 48000 Hz, stereo, fltp, 384 kb/s
Stream #0:11[0x1f9](pol): Subtitle: dvb_teletext ([6][0][0][0] / 0x0006)
Stream #0:29[0x1fa](pol): Subtitle: dvb_subtitle ([6][0][0][0] / 0x0006)
Stream #0:30[0x1fb]: Unknown: none ([5][0][0][0] / 0x0005)
Program 24
Metadata:
service_name : PULS 2
service_provider: EmiTel
Stream #0:12[0x25a]: Video: h264 (Main) ([27][0][0][0] / 0x001B), yuv420p(tv, bt470bg, top first), 720x576 [SAR 12:11 DAR 15:11], 25 fps, 50 tbr, 90k tbn, 50 tbc
Stream #0:23[0x25b](pol): Audio: mp2 ([3][0][0][0] / 0x0003), 48000 Hz, stereo, s16p, 192 kb/s
Stream #0:14[0x25d](pol): Subtitle: dvb_teletext ([6][0][0][0] / 0x0006)
Stream #0:24[0x260](aux): Audio: mp2 ([3][0][0][0] / 0x0003), 48000 Hz, mono, s16p, 192 kb/s (visual impaired)
Stream #0:25[0x25f]: Unknown: none ([5][0][0][0] / 0x0005)
Program 25
Metadata:
service_name : TV6
service_provider: EmiTel
Stream #0:0[0x2be]: Video: h264 (Main) ([27][0][0][0] / 0x001B), yuv420p(tv, bt470bg, top first), 720x576 [SAR 16:11 DAR 20:11], 25 fps, 50 tbr, 90k tbn, 50 tbc
Stream #0:1[0x2bf](pol): Audio: mp2 ([3][0][0][0] / 0x0003), 48000 Hz, stereo, s16p, 192 kb/s
Stream #0:2[0x131](pol,pol): Subtitle: dvb_teletext ([6][0][0][0] / 0x0006)
Stream #0:3[0x2c4](aux): Audio: eac3 (EAC3 / 0x33434145), 48000 Hz, stereo, fltp, 128 kb/s (visual impaired)
Stream #0:4[0x2c3]: Unknown: none ([5][0][0][0] / 0x0005)
Program 26
Metadata:
service_name : Super Polsat
service_provider: EmiTel
Stream #0:13[0x322]: Video: h264 (Main) ([27][0][0][0] / 0x001B), yuv420p(tv, bt470bg, top first), 720x576 [SAR 16:11 DAR 20:11], 25 fps, 50 tbr, 90k tbn, 50 tbc
Stream #0:27[0x323](pol): Audio: mp2 ([3][0][0][0] / 0x0003), 48000 Hz, stereo, s16p, 192 kb/s
Stream #0:22[0x328](aux): Audio: eac3 (EAC3 / 0x33434145), 48000 Hz, stereo, fltp, 128 kb/s (visual impaired)
Stream #0:15[0x69](pol,pol): Subtitle: dvb_teletext ([6][0][0][0] / 0x0006)
Stream #0:28[0x327]: Unknown: none ([5][0][0][0] / 0x0005)

 

Ukłony

Expert

Cześć @LeS59  Dany format dźwięku jest automatycznie odtwarzany przez telewizor, jeżeli jego specyfikacja na to pozwalana. Nie ma potrzebny "ręcznego" ustawiania. Model NU7092 według specyfikacji nie obsługuje EAC3.

 


Editor7.gif

Czy wiesz już wszystko o nowym Note10 i Note10+?

Komputer, konsola do gier, kamera do epickich filmów i inteligentne pióro w jednym mobilnym urządzeniu!

GALAXY UNPACKED
Dołącz do dyskusji o Note10!

Explorer

Witaj <MagdaB> Potrzeby może i nie ma ale wybór powinien być (patrz wyżej - PDF)
Pozdrawiam

EDIT: Jeśli nie dekoduje EAC3 to znaczy nie powinienem nic słyszeć??? Bo jak widać ze specyfikacji sygnału albo MP2 albo EAC3...

Explorer

<MagdaB> Okazuje się, że potrzeba JEST. Dźwięk na kanale POLSAT jest wyraźnie opóźniony w stosunku do obrazu. Wyjście dźwięku na głośniki TV, więc nie można zmienić opóźnienia - info gdyby ktoś sugerował zmianę ustawień.
Z tego co napisałaś powyżej wynika, że odbiornik "wybrał" sobie niewłaściwy strumień:

Program 3
Metadata:
service_name : Polsat
service_provider: EmiTel
Stream #0:6[0x66]: Video: h264 (Main) ([27][0][0][0] / 0x001B), yuv420p(tv, bt470bg, top first), 720x576 [SAR 16:11 DAR 20:11], 25 fps, 50 tbr, 90k tbn, 50 tbc
Stream #0:7[0x67](pol): Audio: mp2 ([3][0][0][0] / 0x0003), 48000 Hz, stereo, s16p, 192 kb/s
Stream #0:39[0x68](pol): Audio: eac3 (EAC3 / 0x33434145), 48000 Hz, stereo, fltp, 256 kb/s
Stream #0:15[0x69](pol,pol): Subtitle: dvb_teletext ([6][0][0][0] / 0x0006)
Stream #0:40[0x6a](pol): Subtitle: dvb_subtitle ([6][0][0][0] / 0x0006)
Stream #0:21[0x6c](aux): Audio: eac3 (EAC3 / 0x33434145), 48000 Hz, stereo, fltp, 128 kb/s (visual impaired)
Stream #0:41[0x6b]: Unknown: none ([5][0][0][0] / 0x0005)

a mianowicie:

Stream #0:21[0x6c](aux): Audio: eac3 (EAC3 / 0x33434145), 48000 Hz, stereo, fltp, 128 kb/s (visual impaired)... czyli jest ten kodek EAC3 czy nie?

No bo jeśli nie to byłoby to kolejne naruszenie Rozporządzenia....

I co z tym zrobimy?

Ukłony

 

Autorzy z największą liczbą like